<?xml version="1.0" standalone="no"?>
<!DOCTYPE svg PUBLIC "-//W3C//DTD SVG 1.1//EN" "http://www.w3.org/Graphics/SVG/1.1/DTD/svg11.dtd" >
<svg xmlns="http://www.w3.org/2000/svg">
<metadata></metadata>
<defs>
<font id="source_sans_problack" horiz-adv-x="1105" >
<font-face units-per-em="2048" ascent="1536" descent="-512" />
<missing-glyph horiz-adv-x="430" />
<glyph horiz-adv-x="2048" />
<glyph horiz-adv-x="2048" />
<glyph unicode="&#xd;" horiz-adv-x="2048" />
<glyph unicode=" "  horiz-adv-x="430" />
<glyph unicode="&#x09;" horiz-adv-x="430" />
<glyph unicode="&#xa0;" horiz-adv-x="430" />
<glyph unicode="!" horiz-adv-x="737" d="M164 188q0 90 58.5 151.5t146.5 61.5t146 -61.5t58 -151.5t-58 -151.5t-146 -61.5t-146.5 61.5t-58.5 151.5zM193 1372h352l-13 -303l-49 -569h-229l-49 569z" />
<glyph unicode="&#x22;" horiz-adv-x="1187" d="M152 1401h352l-12 -303l-70 -434h-189l-69 434zM684 1401h352l-12 -303l-70 -434h-188l-70 434z" />
<glyph unicode="#" d="M70 369v221h172l24 196h-155v222h184l41 323h196l-36 -323h188l41 323h197l-37 -323h159v-222h-188l-25 -196h173v-221h-197l-45 -369h-201l45 369h-188l-45 -369h-201l45 369h-147zM442 590h189l24 196h-188z" />
<glyph unicode="$" d="M70 135l151 238q156 -115 283 -115q76 0 109.5 27.5t33.5 87.5q0 33 -29 62.5t-75.5 55t-103 52.5t-113 62t-103 76.5t-75.5 102.5t-29 134q0 155 82.5 258t232.5 135v213h230v-209q170 -26 309 -172l-174 -201q-110 98 -213 98q-69 0 -100 -23.5t-31 -82.5 q0 -31 29 -58.5t75.5 -51t103 -49.5t113 -60t103 -75.5t75.5 -104t29 -138.5q0 -154 -81 -261t-238 -144v-217h-230v205q-96 11 -194 50.5t-170 104.5z" />
<glyph unicode="%" horiz-adv-x="1781" d="M45 934q0 195 96.5 308.5t247.5 113.5t247.5 -113.5t96.5 -308.5q0 -196 -96.5 -311t-247.5 -115t-247.5 115t-96.5 311zM287 934q0 -125 28.5 -179.5t73.5 -54.5t74 54.5t29 179.5q0 229 -103 229q-102 0 -102 -229zM438 -25l713 1381h197l-713 -1381h-197zM1049 401 q0 195 96.5 308.5t247.5 113.5t247.5 -113.5t96.5 -308.5q0 -196 -96.5 -311t-247.5 -115t-247.5 115t-96.5 311zM1290 401q0 -125 29 -179t74 -54q102 0 102 233q0 230 -102 230q-103 0 -103 -230z" />
<glyph unicode="&#x26;" horiz-adv-x="1413" d="M45 360q0 128 63 216t173 155q-80 144 -80 264q0 150 106 255.5t279 105.5q160 0 256 -86t96 -230q0 -50 -15.5 -97t-39 -83t-60 -72t-71 -62t-80.5 -56q99 -105 233 -199q101 136 144 295h319q-73 -241 -217 -436q122 -59 221 -72l-82 -283q-166 28 -356 129 q-189 -129 -430 -129q-112 0 -201.5 31.5t-144.5 85.5t-84 122.5t-29 145.5zM377 381q0 -62 46.5 -100.5t125.5 -38.5q59 0 131 32q-139 111 -242 232q-61 -64 -61 -125zM489 995q0 -63 37 -133q71 42 108.5 83t37.5 95q0 86 -78 86q-44 0 -74.5 -34.5t-30.5 -96.5z" />
<glyph unicode="'" horiz-adv-x="655" d="M152 1401h352l-12 -303l-70 -434h-189l-69 434z" />
<glyph unicode="(" horiz-adv-x="737" d="M139 569q0 261 68.5 489t202.5 449l221 -90q-209 -378 -209 -848t209 -848l-221 -90q-134 221 -202.5 449t-68.5 489z" />
<glyph unicode=")" horiz-adv-x="737" d="M106 -279q209 378 209 848t-209 848l222 90q134 -220 202 -448t68 -490t-68 -490t-202 -448z" />
<glyph unicode="*" horiz-adv-x="966" d="M61 1087l56 170l248 -49l28 250h180l29 -252l248 51l55 -170l-231 -106l125 -219l-144 -105l-172 187l-172 -187l-143 105l123 219z" />
<glyph unicode="+" d="M70 553v246h356v368h254v-368h356v-246h-356v-369h-254v369h-356z" />
<glyph unicode="," horiz-adv-x="655" d="M94 -233q120 39 184 105.5t64 143.5h-14q-84 0 -144.5 52.5t-60.5 140.5q0 85 61 138.5t152 53.5q113 0 173 -83.5t60 -235.5q0 -184 -104 -314.5t-301 -185.5z" />
<glyph unicode="-" horiz-adv-x="696" d="M90 397v246h516v-246h-516z" />
<glyph unicode="." horiz-adv-x="655" d="M123 188q0 90 58.5 151.5t146.5 61.5t146 -61.5t58 -151.5t-58 -151.5t-146 -61.5t-146.5 61.5t-58.5 151.5z" />
<glyph unicode="/" horiz-adv-x="684" d="M29 -328l360 1782h225l-360 -1782h-225z" />
<glyph unicode="0" d="M70 655q0 325 130.5 496.5t352.5 171.5q221 0 352 -172.5t131 -495.5q0 -326 -131 -503t-352 -177t-352 177t-131 503zM401 655q0 -124 11.5 -208t34 -126t47.5 -58.5t59 -16.5t59 16.5t47.5 58.5t34 126t11.5 208t-11.5 206.5t-34 122.5t-47.5 54.5t-59 14.5t-59 -14.5 t-47.5 -54.5t-34 -122.5t-11.5 -206.5z" />
<glyph unicode="1" d="M135 0v283h279v671h-246v217q199 39 340 127h258v-1015h233v-283h-864z" />
<glyph unicode="2" d="M57 1114q104 110 207 159.5t244 49.5q198 0 322 -117t124 -309q0 -75 -31.5 -157t-90 -165t-116.5 -150.5t-134 -145.5q132 16 217 16h217v-295h-942v201q64 59 91 84t82.5 77t80.5 77.5t69 70t65 70.5t52 64t45.5 64t30.5 57.5t22 58.5t6 53q0 85 -43 128.5t-116 43.5 q-58 0 -106 -32t-107 -91z" />
<glyph unicode="3" d="M41 160l160 221q133 -123 266 -123q88 0 138 31.5t50 91.5q0 53 -23 85t-95.5 51.5t-204.5 19.5v245q155 0 218.5 38t63.5 110q0 119 -135 119q-61 0 -112 -25t-117 -82l-176 213q201 168 422 168q218 0 344.5 -96t126.5 -271q0 -188 -209 -280v-8q115 -35 182.5 -114.5 t67.5 -197.5q0 -119 -70.5 -207t-183 -131t-250.5 -43q-305 0 -463 185z" />
<glyph unicode="4" d="M41 291v246l442 761h439v-741h139v-266h-139v-291h-328v291h-553zM373 557h221v148q0 43 12 307h-8q-41 -97 -106 -234z" />
<glyph unicode="5" d="M45 160l156 221q137 -123 262 -123q192 0 192 168q0 81 -48.5 124.5t-127.5 43.5q-51 0 -85.5 -12t-94.5 -50l-152 99l33 667h770v-294h-467l-16 -189q59 21 123 21q86 0 160.5 -25t132.5 -73t91.5 -126t33.5 -178q0 -141 -68.5 -247t-179 -159t-244.5 -53 q-286 0 -471 185z" />
<glyph unicode="6" d="M78 627q0 171 44 306.5t119.5 219t170.5 127t202 43.5q242 0 406 -164l-184 -209q-33 36 -88.5 63t-108.5 27q-224 0 -240 -350q44 59 115.5 94t128.5 35q176 0 284.5 -100.5t108.5 -300.5q0 -135 -61.5 -237.5t-163 -154t-225.5 -51.5q-77 0 -149 22t-138 72.5 t-114.5 124t-77.5 185t-29 248.5zM408 463q20 -124 66.5 -174.5t103.5 -50.5q62 0 100.5 42t38.5 138q0 155 -144 155q-100 0 -165 -110z" />
<glyph unicode="7" d="M90 1004v294h930v-217q-90 -105 -150 -201t-97 -182.5t-59 -202t-31.5 -219.5t-18.5 -276h-353q13 216 45 371.5t101.5 311.5t189.5 321h-557z" />
<glyph unicode="8" d="M86 332q0 107 55.5 180t157.5 127v8q-172 132 -172 307q0 169 120.5 269t313.5 100q183 0 294.5 -97.5t111.5 -262.5q0 -85 -46 -155t-120 -118v-8q223 -119 223 -342q0 -159 -132 -262t-343 -103q-200 0 -331.5 99.5t-131.5 257.5zM387 373q0 -73 49.5 -114.5 t120.5 -41.5q63 0 102 33t39 102q0 23 -6 42t-24 37t-32.5 29.5t-50.5 29.5t-57.5 27.5t-72.5 31.5q-68 -78 -68 -176zM434 954q0 -61 46.5 -100.5t146.5 -79.5q57 82 57 164q0 67 -34.5 105t-96.5 38q-51 0 -85 -31.5t-34 -95.5z" />
<glyph unicode="9" d="M66 881q0 135 61.5 237t163 153.5t225.5 51.5q77 0 149 -22t138 -72t114.5 -124t77.5 -185t29 -248q0 -171 -44.5 -306.5t-120 -219.5t-170.5 -127.5t-202 -43.5q-241 0 -405 164l184 209q33 -36 88.5 -63t108.5 -27q223 0 239 350q-45 -59 -115.5 -94t-127.5 -35 q-176 0 -284.5 101t-108.5 301zM385 881q0 -156 143 -156q101 0 166 111q-20 124 -66.5 174.5t-103.5 50.5q-62 0 -100.5 -42t-38.5 -138z" />
<glyph unicode=":" horiz-adv-x="655" d="M123 188q0 90 58.5 151.5t146.5 61.5t146 -61.5t58 -151.5t-58 -151.5t-146 -61.5t-146.5 61.5t-58.5 151.5zM123 823q0 90 58.5 151.5t146.5 61.5t146 -61.5t58 -151.5t-58 -151.5t-146 -61.5t-146.5 61.5t-58.5 151.5z" />
<glyph unicode=";" horiz-adv-x="655" d="M94 -233q120 39 184 105.5t64 143.5h-14q-84 0 -144.5 52.5t-60.5 140.5q0 85 61 138.5t152 53.5q113 0 173 -83.5t60 -235.5q0 -184 -104 -314.5t-301 -185.5zM123 823q0 90 58.5 151.5t146.5 61.5t146 -61.5t58 -151.5t-58 -151.5t-146 -61.5t-146.5 61.5t-58.5 151.5z " />
<glyph unicode="&#x3c;" d="M70 561v238l966 368v-286l-331 -103l-279 -94v-8l279 -94l331 -103v-286z" />
<glyph unicode="=" d="M70 307v246h966v-246h-966zM70 799v245h966v-245h-966z" />
<glyph unicode="&#x3e;" d="M70 193v286l331 103l279 94v8l-279 94l-331 103v286l966 -368v-238z" />
<glyph unicode="?" horiz-adv-x="978" d="M86 1204q75 90 173.5 141.5t211.5 51.5q73 0 136 -12.5t117 -40.5t92 -69.5t59.5 -102t21.5 -136.5q0 -50 -16.5 -95t-42.5 -80t-57 -68t-61.5 -65.5t-55 -65.5t-37.5 -74.5t-9 -87.5h-307q-11 74 10.5 141.5t60 117t79.5 92t70.5 84.5t29.5 77q0 52 -32.5 77t-82.5 25 q-48 0 -83.5 -21t-83.5 -65zM258 188q0 90 58.5 151.5t146.5 61.5t146.5 -61.5t58.5 -151.5t-58.5 -151.5t-146.5 -61.5t-146.5 61.5t-58.5 151.5z" />
<glyph unicode="@" horiz-adv-x="1892" d="M98 422q0 213 75.5 395.5t204.5 307t303 194.5t368 70q224 0 394 -96t260.5 -266t90.5 -388q0 -137 -44 -248.5t-115.5 -179.5t-156 -104.5t-171.5 -36.5q-92 0 -160 41.5t-86 113.5h-4q-38 -59 -110 -97t-136 -38q-126 0 -202.5 87.5t-76.5 228.5q0 130 56 248 t154.5 191t211.5 73q106 0 152 -103h4l33 86h213l-99 -467q-37 -151 86 -151q95 0 164.5 98t69.5 250q0 87 -18 164.5t-59.5 149t-104 123t-159 82t-216.5 30.5q-129 0 -252.5 -54t-220.5 -149.5t-156 -238.5t-59 -308q0 -118 32.5 -216.5t88 -166t131.5 -114t162 -68 t180 -21.5q71 0 155 21t148 53l74 -188q-183 -95 -406 -95q-126 0 -242 29.5t-218 92.5t-177 154t-118.5 222t-43.5 289zM795 426q0 -57 24 -88t70 -31q55 0 115 82l45 258q-24 49 -82 49q-50 0 -91 -45t-61 -106t-20 -119z" />
<glyph unicode="A" horiz-adv-x="1196" d="M-20 0l405 1331h426l406 -1331h-373l-66 283h-372l-66 -283h-360zM469 555h246l-23 92q-18 68 -50.5 215t-47.5 207h-8q-75 -348 -94 -422z" />
<glyph unicode="B" horiz-adv-x="1253" d="M147 0v1331h480q88 0 160 -9t137.5 -32.5t109.5 -60.5t70 -95t26 -135q0 -95 -55.5 -176t-165.5 -110v-8q142 -28 212.5 -104.5t70.5 -207.5q0 -100 -41 -176.5t-113.5 -123t-166 -70t-203.5 -23.5h-521zM500 270h143q205 0 205 152q0 73 -50 106t-155 33h-143v-291z M500 807h118q83 0 125.5 37.5t42.5 101.5q0 61 -40.5 88t-127.5 27h-118v-254z" />
<glyph unicode="C" horiz-adv-x="1200" d="M90 655q0 162 53 296.5t143.5 222t207.5 135t247 47.5q118 0 223.5 -49.5t182.5 -126.5l-193 -217q-54 46 -101 68t-108 22q-125 0 -209.5 -104.5t-84.5 -280.5q0 -185 77.5 -287t208.5 -102q135 0 234 106l192 -213q-84 -97 -194.5 -147t-235.5 -50q-105 0 -200.5 26.5 t-176.5 82t-140 135t-92.5 191.5t-33.5 245z" />
<glyph unicode="D" horiz-adv-x="1294" d="M127 0v1331h393q156 0 279 -37.5t215 -115t141 -205.5t49 -301t-49 -303.5t-138.5 -210t-209 -119t-266.5 -39.5h-414zM479 283h21q77 0 136 17.5t107.5 59.5t74.5 120.5t26 191.5q0 91 -17.5 158.5t-47.5 109t-75 66.5t-93.5 34t-110.5 9h-21v-766z" />
<glyph unicode="E" horiz-adv-x="1138" d="M147 0v1331h861v-295h-508v-209h434v-295h-434v-237h528v-295h-881z" />
<glyph unicode="F" horiz-adv-x="1097" d="M147 0v1331h869v-295h-516v-254h442v-295h-442v-487h-353z" />
<glyph unicode="G" horiz-adv-x="1323" d="M90 655q0 163 53.5 297t145.5 221.5t213.5 135t259.5 47.5q132 0 240 -49t186 -127l-193 -217q-54 47 -104 68.5t-125 21.5q-138 0 -226.5 -103.5t-88.5 -281.5q0 -389 348 -389q65 0 102 24v184h-196v287h507v-635q-82 -68 -204 -116t-254 -48q-139 0 -258 43 t-210.5 125.5t-143.5 214t-52 297.5z" />
<glyph unicode="H" horiz-adv-x="1396" d="M147 0v1331h353v-495h397v495h352v-1331h-352v528h-397v-528h-353z" />
<glyph unicode="I" horiz-adv-x="647" d="M147 0v1331h353v-1331h-353z" />
<glyph unicode="J" horiz-adv-x="1064" d="M20 227l238 179q32 -62 77.5 -94.5t90.5 -32.5q75 0 111 46.5t36 166.5v839h353v-868q0 -102 -28 -189t-82 -154.5t-141.5 -106t-199.5 -38.5q-161 0 -271 61.5t-184 190.5z" />
<glyph unicode="K" horiz-adv-x="1286" d="M147 0v1331h353v-495h8l336 495h385l-398 -540l476 -791h-385l-295 512l-127 -180v-332h-353z" />
<glyph unicode="L" horiz-adv-x="1085" d="M147 0v1331h353v-1036h504v-295h-857z" />
<glyph unicode="M" horiz-adv-x="1589" d="M147 0v1331h365l209 -553l74 -217h8l74 217l200 553h365v-1331h-328v393q0 38 3 85t9 105.5t10 96t12.5 104.5t10.5 84h-8l-111 -311l-184 -448h-131l-184 448l-107 311h-8q2 -17 10.5 -84t12.5 -104.5t10 -96t9 -105.5t3 -85v-393h-324z" />
<glyph unicode="N" horiz-adv-x="1376" d="M147 0v1331h361l295 -594l127 -299h8q-3 23 -13.5 112t-15.5 138.5t-10.5 125t-5.5 132.5v385h336v-1331h-361l-295 596l-127 297h-8q2 -22 17 -147t21.5 -206t6.5 -155v-385h-336z" />
<glyph unicode="O" horiz-adv-x="1417" d="M90 672q0 323 168.5 503.5t450.5 180.5q281 0 449.5 -181t168.5 -503q0 -325 -169 -511t-449 -186t-449.5 186.5t-169.5 510.5zM451 672q0 -182 69 -287.5t189 -105.5t189 105.5t69 287.5q0 180 -68.5 280.5t-189.5 100.5t-189.5 -100.5t-68.5 -280.5z" />
<glyph unicode="P" horiz-adv-x="1265" d="M147 0v1331h517q113 0 205 -22.5t167.5 -72t117.5 -137.5t42 -210q0 -118 -43.5 -209.5t-118.5 -146.5t-168.5 -83t-201.5 -28h-164v-422h-353zM500 700h147q102 0 153.5 49t51.5 140q0 87 -51.5 125.5t-153.5 38.5h-147v-353z" />
<glyph unicode="Q" horiz-adv-x="1417" d="M82 672q0 323 168 503.5t450 180.5q281 0 450 -181t169 -503q0 -257 -108.5 -429t-299.5 -235q77 -106 281 -106q81 0 151 24l62 -254q-90 -49 -254 -49q-217 0 -373.5 100t-236.5 271q-212 48 -335.5 226t-123.5 452zM442 672q0 -182 69 -287.5t189 -105.5t189 105.5 t69 287.5q0 180 -68.5 280.5t-189.5 100.5t-189.5 -100.5t-68.5 -280.5z" />
<glyph unicode="R" horiz-adv-x="1290" d="M147 0v1331h504q90 0 166 -12.5t145 -43.5t117 -79t76.5 -123t28.5 -172q0 -268 -215 -385l288 -516h-393l-229 446h-135v-446h-353zM500 725h127q104 0 158.5 45t54.5 131q0 83 -52 117.5t-161 34.5h-127v-328z" />
<glyph unicode="S" horiz-adv-x="1155" d="M66 166l200 242q72 -58 156 -93.5t156 -35.5q151 0 151 94q0 40 -34 62.5t-120 56.5l-9 3t-8 3t-9 4l-166 69q-118 47 -193 141t-75 230q0 173 140 293.5t355 120.5q119 0 236.5 -45t206.5 -133l-176 -222q-71 49 -133.5 73t-133.5 24q-65 0 -102 -23t-37 -67 q0 -40 38.5 -64t131.5 -60l9 -3t8.5 -3t9.5 -4l161 -63q261 -104 261 -365q0 -85 -35.5 -161.5t-100 -135.5t-164.5 -94t-221 -35q-131 0 -265 49t-238 142z" />
<glyph unicode="T" horiz-adv-x="1155" d="M49 1036v295h1057v-295h-352v-1036h-353v1036h-352z" />
<glyph unicode="U" horiz-adv-x="1376" d="M139 643v688h353v-729q0 -176 47 -249.5t153 -73.5q107 0 156 74t49 249v729h340v-688q0 -342 -133 -505t-412 -163q-280 0 -416.5 164t-136.5 504z" />
<glyph unicode="V" horiz-adv-x="1171" d="M-20 1331h372l140 -581q19 -72 49.5 -212t48.5 -210h8q20 77 51 218t47 204l135 581h361l-393 -1331h-426z" />
<glyph unicode="W" horiz-adv-x="1687" d="M20 1331h361l74 -581q7 -69 22.5 -208.5t22.5 -209.5h8q11 60 35.5 202t38.5 216l127 581h295l126 -581q11 -59 23.5 -128.5t27 -155.5t23.5 -134h8q8 78 23.5 220t21.5 198l74 581h336l-221 -1331h-447l-102 528q-29 147 -49 312h-8q-33 -229 -49 -312l-99 -528h-438z " />
<glyph unicode="X" horiz-adv-x="1204" d="M20 0l361 684l-340 647h393l90 -217q17 -35 50 -115.5t44 -105.5h9q40 118 82 221l77 217h377l-340 -663l361 -668h-393l-107 238q-35 73 -94 221h-8q-32 -92 -86 -221l-99 -238h-377z" />
<glyph unicode="Y" horiz-adv-x="1114" d="M-20 1331h376l99 -278q15 -44 31 -93t36.5 -108.5t32.5 -95.5h8q20 60 57 163.5t48 133.5l98 278h369l-402 -872v-459h-352v459z" />
<glyph unicode="Z" horiz-adv-x="1110" d="M66 0v213l544 823h-491v295h925v-213l-544 -823h549v-295h-983z" />
<glyph unicode="[" horiz-adv-x="737" d="M172 -311v1761h459v-184h-197v-1393h197v-184h-459z" />
<glyph unicode="\" horiz-adv-x="684" d="M70 1454h225l360 -1782h-225z" />
<glyph unicode="]" horiz-adv-x="737" d="M106 -127h197v1393h-197v184h459v-1761h-459v184z" />
<glyph unicode="^" d="M94 553l320 819h278l320 -819h-287l-78 225l-90 279h-8l-90 -279l-78 -225h-287z" />
<glyph unicode="_" horiz-adv-x="1024" d="M25 -106h974v-193h-974v193z" />
<glyph unicode="`" horiz-adv-x="1146" d="M238 1491h335l181 -315h-254z" />
<glyph unicode="a" horiz-adv-x="1110" d="M86 291q0 162 132.5 252.5t424.5 120.5q-6 55 -40.5 80.5t-102.5 25.5q-98 0 -258 -86l-123 229q226 136 450 136q206 0 316 -117.5t110 -362.5v-569h-286l-25 98h-8q-136 -123 -283 -123q-140 0 -223.5 92t-83.5 224zM422 319q0 -73 94 -73q39 0 67 17t60 52v140 q-221 -33 -221 -136z" />
<glyph unicode="b" horiz-adv-x="1187" d="M119 0v1425h352v-331l-8 -148q112 103 252 103q181 0 290 -142t109 -377q0 -128 -36 -235t-96 -176t-136 -106.5t-158 -37.5q-140 0 -258 136h-8l-29 -111h-274zM471 311q54 -49 131 -49q68 0 110 62t42 200q0 124 -36 181t-108 57q-76 0 -139 -74v-377z" />
<glyph unicode="c" horiz-adv-x="966" d="M66 512q0 124 44.5 227t120.5 170t174.5 103.5t208.5 36.5q184 0 299 -115l-159 -217q-60 49 -119 49q-98 0 -153.5 -68t-55.5 -186q0 -115 56 -184.5t141 -69.5q73 0 163 66l140 -222q-72 -64 -165 -95.5t-179 -31.5q-147 0 -263 62.5t-184.5 185.5t-68.5 289z" />
<glyph unicode="d" horiz-adv-x="1187" d="M74 512q0 122 36 225t95 170t133.5 104.5t153.5 37.5q78 0 132 -26t105 -77l-12 148v331h352v-1425h-287l-24 94h-8q-54 -54 -123 -86.5t-135 -32.5q-191 0 -304.5 144.5t-113.5 392.5zM434 516q0 -254 152 -254q83 0 131 74v377q-54 49 -139 49q-62 0 -103 -60t-41 -186 z" />
<glyph unicode="e" horiz-adv-x="1069" d="M66 512q0 121 41.5 223.5t110.5 170t157 105.5t182 38q111 0 197.5 -38.5t140.5 -107t81.5 -157.5t27.5 -193q0 -77 -15 -139h-583q43 -172 237 -172q99 0 209 61l115 -209q-81 -57 -182 -88t-191 -31q-151 0 -269.5 62.5t-188.5 185.5t-70 289zM401 627h304 q0 155 -140 155q-63 0 -106.5 -37.5t-57.5 -117.5z" />
<glyph unicode="f" horiz-adv-x="737" d="M45 750v262l135 10v14q0 68 13 127.5t43 113t76 91.5t116 60t158 22q113 0 217 -37l-62 -258q-58 21 -102 21q-52 0 -79.5 -29t-27.5 -98v-25h173v-274h-173v-750h-352v750h-135z" />
<glyph unicode="g" horiz-adv-x="1118" d="M61 -168q0 122 144 197v8q-94 66 -94 176q0 52 30.5 104t83.5 89v8q-60 40 -99.5 109t-39.5 153q0 92 36.5 165t98.5 117.5t139.5 67.5t163.5 23q87 0 164 -25h381v-254h-147q16 -50 16 -106q0 -88 -32 -154.5t-89.5 -106.5t-131 -59.5t-161.5 -19.5q-51 0 -114 14 q-25 -22 -25 -59q0 -34 33 -48t110 -14h154q403 0 403 -266q0 -167 -161 -270t-432 -103q-91 0 -166.5 14t-136 43.5t-94.5 79.5t-34 117zM348 -111q0 -94 201 -94q87 0 144 26t57 68q0 37 -32.5 49.5t-105.5 12.5h-80q-104 0 -147 12q-37 -37 -37 -74zM414 676 q0 -71 29.5 -107.5t80.5 -36.5t81 36.5t30 107.5q0 68 -30 103.5t-81 35.5t-80.5 -35t-29.5 -104z" />
<glyph unicode="h" horiz-adv-x="1191" d="M119 0v1425h352v-331l-16 -176q150 131 307 131q163 0 241 -110t78 -308v-631h-352v586q0 95 -23.5 129.5t-78.5 34.5q-46 0 -78.5 -18t-77.5 -60v-672h-352z" />
<glyph unicode="i" horiz-adv-x="589" d="M98 1327q0 77 55.5 126.5t141.5 49.5t141.5 -49.5t55.5 -126.5t-55.5 -126.5t-141.5 -49.5t-141.5 49.5t-55.5 126.5zM119 0v1024h352v-1024h-352z" />
<glyph unicode="j" horiz-adv-x="593" d="M-115 -356l62 258q47 -13 73 -13q56 0 79.5 34.5t23.5 117.5v983h352v-971q0 -72 -11.5 -134t-40 -119t-73 -97t-114 -64t-158.5 -24q-111 0 -193 29zM102 1327q0 77 55.5 126.5t141.5 49.5t141.5 -49.5t55.5 -126.5t-55.5 -126.5t-141.5 -49.5t-141.5 49.5t-55.5 126.5z " />
<glyph unicode="k" horiz-adv-x="1163" d="M119 0v1425h344v-757h8l283 356h381l-365 -426l385 -598h-381l-205 365l-106 -119v-246h-344z" />
<glyph unicode="l" horiz-adv-x="610" d="M119 360v1065h352v-1077q0 -48 17 -69t40 -21q21 0 37 4l41 -258q-67 -29 -172 -29q-169 0 -242 100.5t-73 284.5z" />
<glyph unicode="m" horiz-adv-x="1777" d="M119 0v1024h287l24 -125h8q75 73 144 111.5t163 38.5q198 0 283 -164q50 51 89.5 82.5t100 56.5t125.5 25q164 0 244 -110.5t80 -307.5v-631h-352v586q0 95 -24 129.5t-79 34.5q-65 0 -143 -78v-672h-352v586q0 95 -24 129.5t-79 34.5q-65 0 -143 -78v-672h-352z" />
<glyph unicode="n" horiz-adv-x="1191" d="M119 0v1024h287l24 -123h8q156 148 324 148q163 0 241 -110t78 -308v-631h-352v586q0 95 -23.5 129.5t-78.5 34.5q-46 0 -78.5 -18t-77.5 -60v-672h-352z" />
<glyph unicode="o" horiz-adv-x="1146" d="M66 512q0 124 42.5 227t113 169.5t161.5 103.5t190 37t190 -37t162 -103.5t113.5 -169.5t42.5 -227t-42.5 -227t-113.5 -169.5t-162 -103.5t-190 -37t-190 37t-161.5 103.5t-113 169.5t-42.5 227zM426 512q0 -254 147 -254q148 0 148 254t-148 254q-147 0 -147 -254z" />
<glyph unicode="p" horiz-adv-x="1187" d="M119 -360v1384h287l24 -94h8q59 55 132 87t147 32q181 0 289 -142t108 -379q0 -128 -36 -234.5t-96 -175t-136 -106t-158 -37.5q-126 0 -229 103l12 -156v-282h-352zM471 311q54 -49 131 -49q68 0 110 62t42 200q0 124 -36 181t-108 57q-76 0 -139 -74v-377z" />
<glyph unicode="q" horiz-adv-x="1187" d="M74 512q0 122 36 225t95 170t133.5 104.5t153.5 37.5q82 0 145 -30t121 -97h8l29 102h274v-1384h-352v292l12 146q-46 -46 -111 -74.5t-126 -28.5q-191 0 -304.5 144.5t-113.5 392.5zM434 516q0 -254 152 -254q83 0 131 74v377q-54 49 -139 49q-62 0 -103 -60t-41 -186z " />
<glyph unicode="r" horiz-adv-x="856" d="M119 0v1024h287l24 -176h8q54 99 132.5 150t158.5 51q76 0 127 -21l-57 -303q-74 16 -115 16q-62 0 -120.5 -41.5t-92.5 -130.5v-569h-352z" />
<glyph unicode="s" horiz-adv-x="925" d="M37 119l156 217q138 -103 249 -103q103 0 103 62q0 15 -9 28t-33 26t-40 20t-57.5 22.5t-57.5 22.5q-258 102 -258 303q0 150 112 241t294 91q196 0 376 -136l-155 -208q-120 86 -209 86q-90 0 -90 -58q0 -11 5 -20.5t16 -18t22 -15t31 -14.5t35 -13t41 -14t42 -15 q53 -19 94 -42t82 -59t63.5 -88.5t22.5 -118.5q0 -150 -114.5 -245t-323.5 -95q-98 0 -208 40t-189 104z" />
<glyph unicode="t" horiz-adv-x="819" d="M29 750v262l155 12l41 266h291v-266h234v-274h-234v-351q0 -79 34 -114t89 -35q40 0 90 16l53 -254q-123 -37 -241 -37q-192 0 -284.5 111t-92.5 307v357h-135z" />
<glyph unicode="u" horiz-adv-x="1175" d="M102 393v631h353v-586q0 -95 23.5 -129.5t78.5 -34.5q49 0 81.5 20.5t66.5 70.5v659h352v-1024h-287l-25 135h-8q-66 -79 -141 -119.5t-174 -40.5q-163 0 -241.5 110t-78.5 308z" />
<glyph unicode="v" horiz-adv-x="1114" d="M25 1024h352l110 -446q24 -97 74 -320h8q50 223 74 320l111 446h336l-324 -1024h-406z" />
<glyph unicode="w" horiz-adv-x="1634" d="M49 1024h348l78 -430q8 -53 20.5 -156.5t20.5 -154.5h8q31 205 58 311l94 430h299l98 -430q14 -59 62 -311h8q8 51 20.5 154.5t20.5 156.5l78 430h323l-233 -1024h-410l-74 356q-38 223 -49 301h-8q-31 -218 -45 -301l-70 -356h-401z" />
<glyph unicode="x" d="M29 0l307 532l-291 492h377l74 -143q13 -29 40.5 -88.5t41.5 -87.5h8q9 28 30.5 87.5t30.5 88.5l49 143h365l-291 -532l307 -492h-377l-82 143q-16 29 -45.5 88.5t-44.5 87.5h-8q-12 -28 -69 -176l-58 -143h-364z" />
<glyph unicode="y" horiz-adv-x="1110" d="M25 1024h352l123 -393q13 -42 24.5 -88t26.5 -109.5t22 -93.5h9q37 181 65 291l103 393h335l-344 -1008q-42 -108 -83 -179.5t-96.5 -123.5t-126 -75t-165.5 -23q-80 0 -155 20l61 267q58 -13 66 -13q125 0 159 103l13 45z" />
<glyph unicode="z" horiz-adv-x="970" d="M82 0v188l389 562h-344v274h782v-188l-389 -562h402v-274h-840z" />
<glyph unicode="{" horiz-adv-x="737" d="M61 467v205q91 3 134 45.5t43 101.5q0 61 -10.5 160t-10.5 172q0 166 63 232.5t207 66.5h144v-184h-33q-58 0 -78 -24.5t-20 -102.5q0 -50 4 -154.5t4 -165.5q0 -118 -39 -172t-125 -74v-8q86 -20 125 -74t39 -172q0 -61 -4 -165t-4 -154q0 -78 20 -102.5t78 -24.5h33 v-184h-144q-144 0 -207 66.5t-63 232.5q0 73 10.5 171.5t10.5 159.5q0 60 -43 102.5t-134 45.5z" />
<glyph unicode="|" horiz-adv-x="569" d="M172 -512v2048h225v-2048h-225z" />
<glyph unicode="}" horiz-adv-x="737" d="M106 -127h33q58 0 78.5 24.5t20.5 102.5q0 50 -4.5 154t-4.5 165q0 118 39 172t125 74v8q-86 20 -125 74t-39 172q0 61 4.5 165.5t4.5 154.5q0 78 -20.5 102.5t-78.5 24.5h-33v184h144q144 0 207 -66.5t63 -232.5q0 -73 -10 -172t-10 -160q0 -60 42.5 -102t133.5 -45 v-205q-91 -3 -133.5 -45.5t-42.5 -102.5q0 -61 10 -159t10 -172q0 -166 -63 -232.5t-207 -66.5h-144v184z" />
<glyph unicode="~" d="M53 651q150 221 328 221q58 0 111 -23t86 -50.5t74 -50.5t77 -23q76 0 143 115l181 -140q-150 -221 -328 -221q-58 0 -111 23t-86 51t-74 51t-77 23q-77 0 -144 -115z" />
<glyph unicode="&#xa1;" horiz-adv-x="737" d="M164 836q0 90 58.5 151.5t146.5 61.5t146 -61.5t58 -151.5t-58 -151.5t-146 -61.5t-146.5 61.5t-58.5 151.5zM193 -348l12 303l49 569h229l49 -569l13 -303h-352z" />
<glyph unicode="&#xa2;" d="M123 627q0 212 123.5 350t326.5 174v192h189v-182q153 -15 250 -112l-160 -218q-48 39 -90 48v-502q61 13 123 61l139 -221q-111 -97 -262 -121v-186h-189v186q-209 30 -329.5 168.5t-120.5 362.5zM463 627q0 -156 110 -219v438q-110 -59 -110 -219z" />
<glyph unicode="&#xa3;" d="M94 0v217q94 40 155.5 117t61.5 178q0 23 -2 33h-203v200l140 13h4q-25 80 -25 127q0 199 129.5 318.5t329.5 119.5q116 0 205.5 -42.5t163.5 -129.5l-189 -188q-65 77 -143 77q-75 0 -117.5 -42.5t-42.5 -133.5q0 -32 12 -106h295v-213h-252q2 -12 2 -37 q0 -60 -17 -106.5t-60 -98.5v-8h512v-295h-959z" />
<glyph unicode="&#xa4;" d="M35 330l123 123q-68 96 -68 223q0 124 66 219l-121 123l174 174l143 -143q96 41 201 41t201 -41l143 143l174 -174l-123 -123q68 -93 68 -219q0 -124 -70 -223l125 -123l-174 -174l-145 145q-91 -39 -199 -39t-199 39l-145 -145zM401 676q0 -78 43 -125t109 -47t109 47 t43 125t-43 125t-109 47t-109 -47t-43 -125z" />
<glyph unicode="&#xa5;" d="M16 1298h361l82 -241q71 -205 94 -266h8q15 44 47 133t47 133l82 241h353l-287 -577h233v-164h-307v-102h307v-164h-307v-291h-352v291h-307v164h307v102h-307v164h233z" />
<glyph unicode="&#xa6;" horiz-adv-x="569" d="M172 410h225v-922h-225v922zM172 655v881h225v-881h-225z" />
<glyph unicode="&#xa7;" d="M70 655q0 71 42 142t115 118q-55 71 -55 170q0 152 103 242t282 90q213 0 389 -139l-160 -217q-49 43 -105.5 70.5t-102.5 27.5q-91 0 -91 -61q0 -23 30.5 -45t78.5 -43.5t106.5 -46.5t117.5 -60t107 -77t78.5 -105.5t30.5 -138.5q0 -170 -166 -277q43 -65 43 -153 q0 -152 -107 -246t-310 -94q-122 0 -234.5 46.5t-179.5 137.5l201 176q96 -102 213 -102q102 0 102 65q0 23 -22.5 44t-60 37.5t-84.5 38t-97 43.5t-97 56t-84.5 74t-60 98.5t-22.5 128.5zM365 680q0 -31 18 -57t54 -48.5t71.5 -38.5t91 -40.5t90.5 -42.5q51 39 51 100 q0 27 -14 50.5t-34.5 40.5t-56 35.5t-66 31.5t-77 32.5t-77.5 34.5q-51 -39 -51 -98z" />
<glyph unicode="&#xa8;" horiz-adv-x="1146" d="M201 1315q0 68 44.5 114t114.5 46t115 -46t45 -114t-45 -114t-115 -46t-114.5 46t-44.5 114zM627 1315q0 68 44.5 114t114.5 46t115 -46t45 -114t-45 -114t-115 -46t-114.5 46t-44.5 114z" />
<glyph unicode="&#xa9;" horiz-adv-x="1540" d="M90 668q0 155 55 284.5t148.5 213.5t216.5 130.5t260 46.5t260 -46.5t216.5 -131t148.5 -213.5t55 -284q0 -156 -55 -286t-148.5 -216.5t-216.5 -134t-260 -47.5t-260 47.5t-216.5 134t-148.5 216.5t-55 286zM246 668q0 -243 148.5 -394t375.5 -151t375.5 151t148.5 394 q0 242 -148 389t-376 147t-376 -147t-148 -389zM393 664q0 175 119.5 286t282.5 111q90 0 155 -32.5t123 -90.5l-129 -143q-62 65 -125 65q-87 0 -132.5 -55.5t-45.5 -140.5q0 -92 45 -146.5t121 -54.5q42 0 73 14.5t74 46.5l111 -159q-132 -103 -266 -103 q-180 0 -293 109.5t-113 292.5z" />
<glyph unicode="&#xaa;" horiz-adv-x="745" d="M53 725q0 108 89 167.5t284 78.5q-8 65 -90 65q-65 0 -176 -57l-86 160q155 90 307 90q137 0 214 -79t77 -237v-381h-197l-20 66h-9q-82 -82 -184 -82q-95 0 -152 61t-57 148zM287 745q0 -45 59 -45q39 0 80 41v90q-139 -16 -139 -86z" />
<glyph unicode="&#xab;" horiz-adv-x="1024" d="M102 393v246l275 287l127 -103l-221 -307l221 -307l-127 -103zM512 393v246l274 287l127 -103l-221 -307l221 -307l-127 -103z" />
<glyph unicode="&#xac;" d="M70 553v246h966v-615h-254v369h-712z" />
<glyph unicode="&#xad;" horiz-adv-x="696" d="M90 397v246h516v-246h-516z" />
<glyph unicode="&#xae;" horiz-adv-x="976" d="M74 1049q0 180 119.5 298.5t293.5 118.5t294 -118.5t120 -298.5t-120 -299t-294 -119t-293.5 119t-119.5 299zM197 1049q0 -140 80 -224t210 -84t210.5 84t80.5 224t-80.5 223.5t-210.5 83.5t-210 -83.5t-80 -223.5zM315 852v397h193q76 0 122 -34.5t46 -100.5 q0 -74 -70 -110l82 -152h-135l-57 115h-50v-115h-131zM446 1055h37q26 0 40 15t14 36t-15 34t-39 13h-37v-98z" />
<glyph unicode="&#xaf;" horiz-adv-x="1146" d="M279 1204v221h589v-221h-589z" />
<glyph unicode="&#xb0;" horiz-adv-x="774" d="M78 1098q0 132 89.5 219.5t221.5 87.5t221.5 -87.5t89.5 -219.5t-89.5 -219.5t-221.5 -87.5t-221.5 87.5t-89.5 219.5zM258 1098q0 -64 36 -104t95 -40t95 40t36 104t-36 103.5t-95 39.5t-95 -39.5t-36 -103.5z" />
<glyph unicode="&#xb1;" d="M70 0v246h966v-246h-966zM70 594v246h356v327h254v-327h356v-246h-356v-246h-254v246h-356z" />
<glyph unicode="&#xb2;" horiz-adv-x="778" d="M45 1556q131 168 320 168q140 0 223.5 -73t83.5 -201q0 -43 -14 -86.5t-44 -89.5t-54.5 -77.5t-67.5 -82.5h204v-213h-610v135q165 129 252.5 218t87.5 151q0 53 -26.5 82t-75.5 29q-64 0 -136 -91z" />
<glyph unicode="&#xb3;" horiz-adv-x="778" d="M49 1040l152 119q36 -49 72.5 -69.5t82.5 -20.5q43 0 71 21t28 57q0 46 -40.5 68t-127.5 22v143q139 0 139 82q0 33 -22.5 51.5t-59.5 18.5q-59 0 -119 -74l-143 127q72 75 141 107t166 32q119 0 203 -62t84 -163q0 -60 -26.5 -102.5t-80.5 -77.5q62 -29 99 -78.5 t37 -114.5q0 -107 -95 -178t-225 -71q-227 0 -336 163z" />
<glyph unicode="&#xb4;" horiz-adv-x="1146" d="M393 1176l180 315h336l-262 -315h-254z" />
<glyph unicode="&#xb5;" horiz-adv-x="1191" d="M119 -410v1434h352v-586q0 -95 23.5 -129.5t78.5 -34.5q49 0 81.5 20.5t66.5 70.5v659h352v-1024h-287l-24 135h-8q-30 -68 -83.5 -103.5t-117.5 -35.5q-68 0 -102 29l20 -185v-250h-352z" />
<glyph unicode="&#xb6;" horiz-adv-x="1363" d="M78 868q0 103 28 183t76 132t117 86t145 48t166 14h90v-950h-90q-146 0 -265 54.5t-193 167t-74 265.5zM815 -164v1495h352v-1495h-352z" />
<glyph unicode="&#xb7;" horiz-adv-x="655" d="M123 655q0 90 58.5 151.5t146.5 61.5t146 -61.5t58 -151.5t-58 -151.5t-146 -61.5t-146.5 61.5t-58.5 151.5z" />
<glyph unicode="&#xb8;" horiz-adv-x="1146" d="M348 -324q164 14 164 86q0 25 -25 45t-90 37l82 164h201l-37 -90q119 -43 119 -156q0 -53 -31 -95t-85.5 -68t-123 -40.5t-149.5 -17.5z" />
<glyph unicode="&#xb9;" horiz-adv-x="778" d="M147 1454v156q84 11 132.5 30.5t109.5 59.5h201v-799h-258v553h-185z" />
<glyph unicode="&#xba;" horiz-adv-x="770" d="M45 870q0 162 100.5 260.5t239.5 98.5t239.5 -98.5t100.5 -260.5q0 -107 -48.5 -189.5t-125.5 -123.5t-166 -41t-166 41t-125.5 123.5t-48.5 189.5zM295 870q0 -161 90 -161t90 161q0 166 -90 166t-90 -166z" />
<glyph unicode="&#xbb;" horiz-adv-x="1024" d="M111 209l221 307l-221 307l127 103l274 -287v-246l-274 -287zM520 209l221 307l-221 307l127 103l275 -287v-246l-275 -287z" />
<glyph unicode="&#xbc;" horiz-adv-x="1679" d="M82 1085v156q84 11 132.5 30.5t109.5 59.5h200v-799h-258v553h-184zM385 -25l713 1381h196l-712 -1381h-197zM967 164v127l270 508h324v-471h118v-164h-118v-164h-226v164h-368zM1196 328h139v61l13 246h-9l-73 -156z" />
<glyph unicode="&#xbd;" horiz-adv-x="1761" d="M82 1085v156q84 11 132.5 30.5t109.5 59.5h200v-799h-258v553h-184zM356 -25l713 1381h197l-713 -1381h-197zM1028 655q131 168 320 168q140 0 223.5 -73t83.5 -201q0 -43 -14 -86.5t-44 -89.5t-54.5 -77.5t-67.5 -82.5h204v-213h-610v135q165 129 252.5 218t87.5 151 q0 53 -26.5 81.5t-75.5 28.5q-65 0 -136 -90z" />
<glyph unicode="&#xbe;" horiz-adv-x="1691" d="M41 672l152 119q36 -49 72.5 -70t82.5 -21q42 0 70 21t28 57q0 46 -40 68t-127 22v144q139 0 139 82q0 33 -22 51t-60 18q-60 0 -119 -73l-143 127q72 75 141 107t166 32q118 0 202.5 -62.5t84.5 -163.5q0 -60 -26.5 -102.5t-80.5 -77.5q62 -29 98.5 -78t36.5 -114 q0 -108 -95 -179t-224 -71q-227 0 -336 164zM418 -25l712 1381h197l-713 -1381h-196zM979 164v127l270 508h324v-471h119v-164h-119v-164h-225v164h-369zM1208 328h140v61l12 246h-8l-74 -156z" />
<glyph unicode="&#xbf;" horiz-adv-x="978" d="M82 -12q0 57 22 109.5t54.5 89t70 77.5t68.5 76t49.5 83t13.5 101h308q11 -74 -10.5 -141.5t-60 -117t-79.5 -92t-70.5 -84.5t-29.5 -77q0 -52 32 -77t82 -25q48 0 84 21t84 65l193 -176q-75 -90 -173.5 -141.5t-211.5 -51.5q-73 0 -136 12.5t-117 40.5t-92 69.5 t-59.5 102t-21.5 136.5zM311 836q0 90 58.5 151.5t146.5 61.5t146.5 -61.5t58.5 -151.5t-58.5 -151.5t-146.5 -61.5t-146.5 61.5t-58.5 151.5z" />
<glyph unicode="&#xc0;" horiz-adv-x="1196" d="M-20 0l405 1331h426l406 -1331h-373l-66 283h-372l-66 -283h-360zM233 1688h369l160 -254h-279zM469 555h246l-23 92q-18 68 -50.5 215t-47.5 207h-8q-75 -348 -94 -422z" />
<glyph unicode="&#xc1;" horiz-adv-x="1196" d="M-20 0l405 1331h426l406 -1331h-373l-66 283h-372l-66 -283h-360zM418 1434l160 254h368l-250 -254h-278zM469 555h246l-23 92q-18 68 -50.5 215t-47.5 207h-8q-75 -348 -94 -422z" />
<glyph unicode="&#xc2;" horiz-adv-x="1196" d="M-20 0l405 1331h426l406 -1331h-373l-66 283h-372l-66 -283h-360zM221 1434l197 254h344l196 -254h-266l-98 118h-8l-99 -118h-266zM469 555h246l-23 92q-18 68 -50.5 215t-47.5 207h-8q-75 -348 -94 -422z" />
<glyph unicode="&#xc3;" horiz-adv-x="1196" d="M-20 0l405 1331h426l406 -1331h-373l-66 283h-372l-66 -283h-360zM221 1434q18 149 83.5 224t154.5 75q48 0 97 -21.5t88 -43t61 -21.5q56 0 77 86h176q-18 -149 -83 -224t-154 -75q-48 0 -97 21.5t-88 43t-61 21.5q-57 0 -78 -86h-176zM469 555h246l-23 92 q-18 68 -50.5 215t-47.5 207h-8q-75 -348 -94 -422z" />
<glyph unicode="&#xc4;" horiz-adv-x="1196" d="M-20 0l405 1331h426l406 -1331h-373l-66 283h-372l-66 -283h-360zM217 1581q0 68 45 114t115 46t115 -46t45 -114t-45 -114t-115 -46t-115 46t-45 114zM469 555h246l-23 92q-18 68 -50.5 215t-47.5 207h-8q-75 -348 -94 -422zM643 1581q0 68 45 114t115 46t115 -46 t45 -114t-45 -114t-115 -46t-115 46t-45 114z" />
<glyph unicode="&#xc5;" horiz-adv-x="1196" d="M-20 0l405 1331h426l406 -1331h-373l-66 283h-372l-66 -283h-360zM344 1634q0 95 67.5 152t178.5 57t178.5 -57t67.5 -152t-67.5 -152t-178.5 -57t-178.5 57t-67.5 152zM469 555h246l-23 92q-18 68 -50.5 215t-47.5 207h-8q-75 -348 -94 -422zM512 1634q0 -36 22.5 -59 t55.5 -23t55.5 23t22.5 59t-22.5 59t-55.5 23t-55.5 -23t-22.5 -59z" />
<glyph unicode="&#xc6;" horiz-adv-x="1748" d="M-45 0l606 1331h1057v-295h-488v-209h414v-295h-414v-237h508v-295h-860v270h-338l-116 -270h-369zM557 543h221v526h-8q-121 -313 -139 -356z" />
<glyph unicode="&#xc7;" horiz-adv-x="1200" d="M90 655q0 162 53 296.5t143.5 222t207.5 135t247 47.5q118 0 223.5 -49.5t182.5 -126.5l-193 -217q-54 46 -101 68t-108 22q-125 0 -209.5 -104.5t-84.5 -280.5q0 -185 77.5 -287t208.5 -102q135 0 234 106l192 -213q-139 -162 -346 -190l-26 -64q118 -42 118 -156 q0 -53 -31 -95t-85.5 -68t-123 -40.5t-149.5 -17.5l-24 135q163 14 163 86q0 25 -24.5 45t-89.5 37l69 140q-112 18 -206 69t-165.5 133t-112 202.5t-40.5 266.5z" />
<glyph unicode="&#xc8;" horiz-adv-x="1138" d="M147 0v1331h861v-295h-508v-209h434v-295h-434v-237h528v-295h-881zM238 1688h368l160 -254h-279z" />
<glyph unicode="&#xc9;" horiz-adv-x="1138" d="M147 0v1331h861v-295h-508v-209h434v-295h-434v-237h528v-295h-881zM422 1434l160 254h368l-250 -254h-278z" />
<glyph unicode="&#xca;" horiz-adv-x="1138" d="M147 0v1331h861v-295h-508v-209h434v-295h-434v-237h528v-295h-881zM225 1434l197 254h344l197 -254h-267l-98 118h-8l-98 -118h-267z" />
<glyph unicode="&#xcb;" horiz-adv-x="1138" d="M147 0v1331h861v-295h-508v-209h434v-295h-434v-237h528v-295h-881zM221 1581q0 68 45 114t115 46t115 -46t45 -114t-45 -114t-115 -46t-115 46t-45 114zM647 1581q0 68 45 114t115 46t115 -46t45 -114t-45 -114t-115 -46t-115 46t-45 114z" />
<glyph unicode="&#xcc;" horiz-adv-x="647" d="M-33 1688h369l160 -254h-279zM147 0v1331h353v-1331h-353z" />
<glyph unicode="&#xcd;" horiz-adv-x="647" d="M147 0v1331h353v-1331h-353zM152 1434l159 254h369l-250 -254h-278z" />
<glyph unicode="&#xce;" horiz-adv-x="647" d="M-45 1434l197 254h344l196 -254h-266l-98 118h-9l-98 -118h-266zM147 0v1331h353v-1331h-353z" />
<glyph unicode="&#xcf;" horiz-adv-x="647" d="M-49 1581q0 68 45 114t115 46t114.5 -46t44.5 -114t-44.5 -114t-114.5 -46t-115 46t-45 114zM147 0v1331h353v-1331h-353zM377 1581q0 68 45 114t115 46t114.5 -46t44.5 -114t-44.5 -114t-114.5 -46t-115 46t-45 114z" />
<glyph unicode="&#xd0;" horiz-adv-x="1363" d="M45 602v152l152 12v565h393q156 0 279 -37.5t215 -115t141 -205.5t49 -301q0 -139 -32 -250.5t-90.5 -189.5t-141.5 -130.5t-183 -77t-217 -24.5h-413v602h-152zM549 283h20q77 0 136 17.5t107.5 59.5t74.5 120.5t26 191.5q0 91 -17.5 158.5t-47.5 109t-75 66.5t-93.5 34 t-110.5 9h-20v-283h237v-164h-237v-319z" />
<glyph unicode="&#xd1;" horiz-adv-x="1376" d="M147 0v1331h361l295 -594l127 -299h8q-3 23 -13.5 112t-15.5 138.5t-10.5 125t-5.5 132.5v385h336v-1331h-361l-295 596l-127 297h-8q2 -22 17 -147t21.5 -206t6.5 -155v-385h-336zM319 1434q18 149 83.5 224t154.5 75q48 0 97 -21.5t88 -43t61 -21.5q57 0 78 86h176 q-18 -149 -83.5 -224t-154.5 -75q-48 0 -97 21.5t-88 43t-61 21.5q-56 0 -77 -86h-177z" />
<glyph unicode="&#xd2;" horiz-adv-x="1417" d="M90 672q0 323 168.5 503.5t450.5 180.5q281 0 449.5 -181t168.5 -503q0 -325 -169 -511t-449 -186t-449.5 186.5t-169.5 510.5zM352 1688h369l160 -254h-279zM451 672q0 -182 69 -287.5t189 -105.5t189 105.5t69 287.5q0 180 -68.5 280.5t-189.5 100.5t-189.5 -100.5 t-68.5 -280.5z" />
<glyph unicode="&#xd3;" horiz-adv-x="1417" d="M90 672q0 323 168.5 503.5t450.5 180.5q281 0 449.5 -181t168.5 -503q0 -325 -169 -511t-449 -186t-449.5 186.5t-169.5 510.5zM451 672q0 -182 69 -287.5t189 -105.5t189 105.5t69 287.5q0 180 -68.5 280.5t-189.5 100.5t-189.5 -100.5t-68.5 -280.5zM537 1434l159 254 h369l-250 -254h-278z" />
<glyph unicode="&#xd4;" horiz-adv-x="1417" d="M90 672q0 323 168.5 503.5t450.5 180.5q281 0 449.5 -181t168.5 -503q0 -325 -169 -511t-449 -186t-449.5 186.5t-169.5 510.5zM340 1434l197 254h344l196 -254h-266l-98 118h-8l-99 -118h-266zM451 672q0 -182 69 -287.5t189 -105.5t189 105.5t69 287.5 q0 180 -68.5 280.5t-189.5 100.5t-189.5 -100.5t-68.5 -280.5z" />
<glyph unicode="&#xd5;" horiz-adv-x="1417" d="M90 672q0 323 168.5 503.5t450.5 180.5q281 0 449.5 -181t168.5 -503q0 -325 -169 -511t-449 -186t-449.5 186.5t-169.5 510.5zM340 1434q18 149 83.5 224t154.5 75q48 0 97 -21.5t87.5 -43t60.5 -21.5q57 0 78 86h176q-18 -149 -83 -224t-154 -75q-48 0 -97 21.5t-88 43 t-61 21.5q-57 0 -78 -86h-176zM451 672q0 -182 69 -287.5t189 -105.5t189 105.5t69 287.5q0 180 -68.5 280.5t-189.5 100.5t-189.5 -100.5t-68.5 -280.5z" />
<glyph unicode="&#xd6;" horiz-adv-x="1417" d="M90 672q0 323 168.5 503.5t450.5 180.5q281 0 449.5 -181t168.5 -503q0 -325 -169 -511t-449 -186t-449.5 186.5t-169.5 510.5zM336 1581q0 68 45 114t115 46t114.5 -46t44.5 -114t-44.5 -114t-114.5 -46t-115 46t-45 114zM451 672q0 -182 69 -287.5t189 -105.5 t189 105.5t69 287.5q0 180 -68.5 280.5t-189.5 100.5t-189.5 -100.5t-68.5 -280.5zM762 1581q0 68 45 114t115 46t114.5 -46t44.5 -114t-44.5 -114t-114.5 -46t-115 46t-45 114z" />
<glyph unicode="&#xd7;" d="M96 391l283 283l-283 282l174 174l283 -282l283 282l174 -174l-283 -282l283 -283l-174 -174l-283 283l-283 -283z" />
<glyph unicode="&#xd8;" horiz-adv-x="1417" d="M74 45l141 172q-125 180 -125 455q0 323 168.5 503.5t450.5 180.5q206 0 356 -101l139 170l180 -139l-161 -196q104 -167 104 -418q0 -325 -169 -511t-449 -186q-189 0 -328 86l-127 -155zM451 672q0 -87 14 -150l391 477q-63 54 -147 54q-121 0 -189.5 -100.5 t-68.5 -280.5zM588 313q52 -34 121 -34q120 0 189 105.5t69 287.5q0 52 -6 96z" />
<glyph unicode="&#xd9;" horiz-adv-x="1376" d="M139 643v688h353v-729q0 -176 47 -249.5t153 -73.5q107 0 156 74t49 249v729h340v-688q0 -342 -133 -505t-412 -163q-280 0 -416.5 164t-136.5 504zM332 1688h368l160 -254h-278z" />
<glyph unicode="&#xda;" horiz-adv-x="1376" d="M139 643v688h353v-729q0 -176 47 -249.5t153 -73.5q107 0 156 74t49 249v729h340v-688q0 -342 -133 -505t-412 -163q-280 0 -416.5 164t-136.5 504zM516 1434l160 254h368l-249 -254h-279z" />
<glyph unicode="&#xdb;" horiz-adv-x="1376" d="M139 643v688h353v-729q0 -176 47 -249.5t153 -73.5q107 0 156 74t49 249v729h340v-688q0 -342 -133 -505t-412 -163q-280 0 -416.5 164t-136.5 504zM319 1434l197 254h344l197 -254h-266l-99 118h-8l-98 -118h-267z" />
<glyph unicode="&#xdc;" horiz-adv-x="1376" d="M139 643v688h353v-729q0 -176 47 -249.5t153 -73.5q107 0 156 74t49 249v729h340v-688q0 -342 -133 -505t-412 -163q-280 0 -416.5 164t-136.5 504zM315 1581q0 68 45 114t115 46t115 -46t45 -114t-45 -114t-115 -46t-115 46t-45 114zM741 1581q0 68 45 114t115 46 t115 -46t45 -114t-45 -114t-115 -46t-115 46t-45 114z" />
<glyph unicode="&#xdd;" horiz-adv-x="1114" d="M-20 1331h376l99 -278q15 -44 31 -93t36.5 -108.5t32.5 -95.5h8q20 60 57 163.5t48 133.5l98 278h369l-402 -872v-459h-352v459zM385 1434l160 254h368l-249 -254h-279z" />
<glyph unicode="&#xde;" horiz-adv-x="1298" d="M156 0v1331h352v-192h164q90 0 166 -13.5t145 -46t117 -82t76 -126.5t28 -175q0 -118 -43.5 -209.5t-118.5 -146.5t-168.5 -83t-201.5 -28h-164v-229h-352zM508 508h147q103 0 154 48.5t51 139.5q0 87 -51.5 125.5t-153.5 38.5h-147v-352z" />
<glyph unicode="&#xdf;" horiz-adv-x="1339" d="M119 0v975q0 102 31.5 186.5t93.5 148.5t163 100t232 36q110 0 198 -30t142 -80.5t82.5 -113.5t28.5 -132q0 -54 -15 -100t-37 -77.5t-44 -58.5t-37 -53.5t-15 -50.5q0 -25 25.5 -49t63.5 -42.5t83 -48t83 -64t63.5 -92.5t25.5 -130q0 -152 -103 -250.5t-294 -98.5 q-87 0 -160 22.5t-156 68.5l119 237q94 -70 185 -70q40 0 65 20.5t25 53.5q0 28 -25.5 54t-63.5 45.5t-83 47.5t-83 58.5t-63.5 80.5t-25.5 112q0 49 20.5 95.5t45 78t45 77t20.5 93.5q0 54 -30.5 88t-84.5 34q-85 0 -128.5 -62.5t-43.5 -170.5v-938h-348z" />
<glyph unicode="&#xe0;" horiz-adv-x="1110" d="M86 291q0 162 132.5 252.5t424.5 120.5q-6 55 -40.5 80.5t-102.5 25.5q-98 0 -258 -86l-123 229q226 136 450 136q206 0 316 -117.5t110 -362.5v-569h-286l-25 98h-8q-136 -123 -283 -123q-140 0 -223.5 92t-83.5 224zM248 1491h336l180 -315h-254zM422 319q0 -73 94 -73 q39 0 67 17t60 52v140q-221 -33 -221 -136z" />
<glyph unicode="&#xe1;" horiz-adv-x="1110" d="M86 291q0 162 132.5 252.5t424.5 120.5q-6 55 -40.5 80.5t-102.5 25.5q-98 0 -258 -86l-123 229q226 136 450 136q206 0 316 -117.5t110 -362.5v-569h-286l-25 98h-8q-136 -123 -283 -123q-140 0 -223.5 92t-83.5 224zM403 1176l181 315h336l-263 -315h-254zM422 319 q0 -73 94 -73q39 0 67 17t60 52v140q-221 -33 -221 -136z" />
<glyph unicode="&#xe2;" horiz-adv-x="1110" d="M86 291q0 162 132.5 252.5t424.5 120.5q-6 55 -40.5 80.5t-102.5 25.5q-98 0 -258 -86l-123 229q226 136 450 136q206 0 316 -117.5t110 -362.5v-569h-286l-25 98h-8q-136 -123 -283 -123q-140 0 -223.5 92t-83.5 224zM248 1176l196 315h279l197 -315h-234l-98 151h-8 l-99 -151h-233zM422 319q0 -73 94 -73q39 0 67 17t60 52v140q-221 -33 -221 -136z" />
<glyph unicode="&#xe3;" horiz-adv-x="1110" d="M86 291q0 162 132.5 252.5t424.5 120.5q-6 55 -40.5 80.5t-102.5 25.5q-98 0 -258 -86l-123 229q226 136 450 136q206 0 316 -117.5t110 -362.5v-569h-286l-25 98h-8q-136 -123 -283 -123q-140 0 -223.5 92t-83.5 224zM223 1176q18 150 80 224.5t150 74.5q48 0 97 -21.5 t87.5 -43t60.5 -21.5q26 0 42 19t28 67h176q-18 -150 -79.5 -224.5t-149.5 -74.5q-48 0 -97 21.5t-88 43t-61 21.5q-26 0 -42 -19t-28 -67h-176zM422 319q0 -73 94 -73q39 0 67 17t60 52v140q-221 -33 -221 -136z" />
<glyph unicode="&#xe4;" horiz-adv-x="1110" d="M86 291q0 162 132.5 252.5t424.5 120.5q-6 55 -40.5 80.5t-102.5 25.5q-98 0 -258 -86l-123 229q226 136 450 136q206 0 316 -117.5t110 -362.5v-569h-286l-25 98h-8q-136 -123 -283 -123q-140 0 -223.5 92t-83.5 224zM211 1315q0 68 45 114t115 46t114.5 -46t44.5 -114 t-44.5 -114t-114.5 -46t-115 46t-45 114zM422 319q0 -73 94 -73q39 0 67 17t60 52v140q-221 -33 -221 -136zM637 1315q0 68 45 114t115 46t114.5 -46t44.5 -114t-44.5 -114t-114.5 -46t-115 46t-45 114z" />
<glyph unicode="&#xe5;" horiz-adv-x="1110" d="M86 291q0 162 132.5 252.5t424.5 120.5q-6 55 -40.5 80.5t-102.5 25.5q-98 0 -258 -86l-123 229q226 136 450 136q206 0 316 -117.5t110 -362.5v-569h-286l-25 98h-8q-136 -123 -283 -123q-140 0 -223.5 92t-83.5 224zM338 1343q0 98 68 158t178 60t177.5 -60t67.5 -158 t-67.5 -157.5t-177.5 -59.5q-111 0 -178.5 59.5t-67.5 157.5zM422 319q0 -73 94 -73q39 0 67 17t60 52v140q-221 -33 -221 -136zM506 1343q0 -39 22.5 -64.5t55.5 -25.5t55.5 25.5t22.5 64.5t-22.5 65t-55.5 26t-55.5 -26t-22.5 -65z" />
<glyph unicode="&#xe6;" horiz-adv-x="1601" d="M86 291q0 162 131 253.5t422 121.5q-6 55 -38.5 79.5t-100.5 24.5q-98 0 -258 -86l-123 229q226 136 430 136q177 0 282 -131q70 67 138.5 99t152.5 32q102 0 182 -40t130 -109.5t76 -160t26 -194.5q0 -81 -14 -139h-564q39 -156 218 -156q48 0 94.5 17t109.5 52 l119 -225q-81 -57 -182 -88t-191 -31q-206 0 -348 148q-108 -83 -194 -115.5t-191 -32.5q-140 0 -223.5 92t-83.5 224zM422 319q0 -73 94 -73q80 0 148 61q-19 60 -25 109l-4 39q-213 -35 -213 -136zM958 618h279q0 74 -30.5 119t-96.5 45q-130 0 -152 -164z" />
<glyph unicode="&#xe7;" horiz-adv-x="966" d="M66 512q0 124 44.5 227t120.5 170t174.5 103.5t208.5 36.5q184 0 299 -115l-159 -217q-60 49 -119 49q-98 0 -153.5 -68t-55.5 -186q0 -115 56 -184.5t141 -69.5q73 0 163 66l140 -222q-102 -89 -240 -116l-29 -68q119 -43 119 -156q0 -53 -31 -95t-85.5 -68t-123 -40.5 t-149.5 -17.5l-25 135q164 14 164 86q0 25 -24.5 45t-89.5 37l69 140q-187 32 -301 170.5t-114 357.5z" />
<glyph unicode="&#xe8;" horiz-adv-x="1069" d="M66 512q0 121 41.5 223.5t110.5 170t157 105.5t182 38q111 0 197.5 -38.5t140.5 -107t81.5 -157.5t27.5 -193q0 -77 -15 -139h-583q43 -172 237 -172q99 0 209 61l115 -209q-81 -57 -182 -88t-191 -31q-151 0 -269.5 62.5t-188.5 185.5t-70 289zM221 1491h336l180 -315 h-254zM401 627h304q0 155 -140 155q-63 0 -106.5 -37.5t-57.5 -117.5z" />
<glyph unicode="&#xe9;" horiz-adv-x="1069" d="M66 512q0 121 41.5 223.5t110.5 170t157 105.5t182 38q111 0 197.5 -38.5t140.5 -107t81.5 -157.5t27.5 -193q0 -77 -15 -139h-583q43 -172 237 -172q99 0 209 61l115 -209q-81 -57 -182 -88t-191 -31q-151 0 -269.5 62.5t-188.5 185.5t-70 289zM377 1176l180 315h336 l-262 -315h-254zM401 627h304q0 155 -140 155q-63 0 -106.5 -37.5t-57.5 -117.5z" />
<glyph unicode="&#xea;" horiz-adv-x="1069" d="M66 512q0 121 41.5 223.5t110.5 170t157 105.5t182 38q111 0 197.5 -38.5t140.5 -107t81.5 -157.5t27.5 -193q0 -77 -15 -139h-583q43 -172 237 -172q99 0 209 61l115 -209q-81 -57 -182 -88t-191 -31q-151 0 -269.5 62.5t-188.5 185.5t-70 289zM221 1176l197 315h278 l197 -315h-234l-98 151h-8l-98 -151h-234zM401 627h304q0 155 -140 155q-63 0 -106.5 -37.5t-57.5 -117.5z" />
<glyph unicode="&#xeb;" horiz-adv-x="1069" d="M66 512q0 121 41.5 223.5t110.5 170t157 105.5t182 38q111 0 197.5 -38.5t140.5 -107t81.5 -157.5t27.5 -193q0 -77 -15 -139h-583q43 -172 237 -172q99 0 209 61l115 -209q-81 -57 -182 -88t-191 -31q-151 0 -269.5 62.5t-188.5 185.5t-70 289zM184 1315q0 68 45 114 t115 46t115 -46t45 -114t-45 -114t-115 -46t-115 46t-45 114zM401 627h304q0 155 -140 155q-63 0 -106.5 -37.5t-57.5 -117.5zM610 1315q0 68 45 114t115 46t115 -46t45 -114t-45 -114t-115 -46t-115 46t-45 114z" />
<glyph unicode="&#xec;" horiz-adv-x="589" d="M-41 1491h336l180 -315h-254zM119 0v1024h352v-1024h-352z" />
<glyph unicode="&#xed;" horiz-adv-x="589" d="M115 1176l180 315h336l-262 -315h-254zM119 0v1024h352v-1024h-352z" />
<glyph unicode="&#xee;" horiz-adv-x="589" d="M-41 1176l197 315h278l197 -315h-234l-98 151h-8l-98 -151h-234zM119 0v1024h352v-1024h-352z" />
<glyph unicode="&#xef;" horiz-adv-x="589" d="M-78 1315q0 68 45 114t115 46t115 -46t45 -114t-45 -114t-115 -46t-115 46t-45 114zM119 0v1024h352v-1024h-352zM348 1315q0 68 45 114t115 46t115 -46t45 -114t-45 -114t-115 -46t-115 46t-45 114z" />
<glyph unicode="&#xf0;" horiz-adv-x="1159" d="M78 471q0 108 35.5 198.5t94.5 148t132.5 89t151.5 31.5q119 0 188 -64q-51 126 -152 224l-290 -146l-91 152l228 115q-54 34 -164 92l151 213q168 -86 283 -170l293 147l90 -153l-237 -119q274 -277 274 -676q0 -166 -59.5 -296.5t-175 -206t-269.5 -75.5 q-202 0 -342.5 137.5t-140.5 358.5zM397 471q0 -102 50.5 -157.5t125.5 -55.5q73 0 118.5 66t45.5 208q0 55 -2 80q-68 68 -168 68q-77 0 -123.5 -50t-46.5 -159z" />
<glyph unicode="&#xf1;" horiz-adv-x="1191" d="M119 0v1024h287l24 -123h8q156 148 324 148q163 0 241 -110t78 -308v-631h-352v586q0 95 -23.5 129.5t-78.5 34.5q-46 0 -78.5 -18t-77.5 -60v-672h-352zM283 1176q18 150 79.5 224.5t149.5 74.5q48 0 97 -21.5t88 -43t61 -21.5q26 0 41.5 19t27.5 67h177 q-18 -150 -80 -224.5t-150 -74.5q-48 0 -97 21.5t-88 43t-61 21.5q-26 0 -41.5 -19t-27.5 -67h-176z" />
<glyph unicode="&#xf2;" horiz-adv-x="1146" d="M66 512q0 124 42.5 227t113 169.5t161.5 103.5t190 37t190 -37t162 -103.5t113.5 -169.5t42.5 -227t-42.5 -227t-113.5 -169.5t-162 -103.5t-190 -37t-190 37t-161.5 103.5t-113 169.5t-42.5 227zM238 1491h335l181 -315h-254zM426 512q0 -254 147 -254q148 0 148 254 t-148 254q-147 0 -147 -254z" />
<glyph unicode="&#xf3;" horiz-adv-x="1146" d="M66 512q0 124 42.5 227t113 169.5t161.5 103.5t190 37t190 -37t162 -103.5t113.5 -169.5t42.5 -227t-42.5 -227t-113.5 -169.5t-162 -103.5t-190 -37t-190 37t-161.5 103.5t-113 169.5t-42.5 227zM393 1176l180 315h336l-262 -315h-254zM426 512q0 -254 147 -254 q148 0 148 254t-148 254q-147 0 -147 -254z" />
<glyph unicode="&#xf4;" horiz-adv-x="1146" d="M66 512q0 124 42.5 227t113 169.5t161.5 103.5t190 37t190 -37t162 -103.5t113.5 -169.5t42.5 -227t-42.5 -227t-113.5 -169.5t-162 -103.5t-190 -37t-190 37t-161.5 103.5t-113 169.5t-42.5 227zM238 1176l196 315h279l196 -315h-233l-98 151h-9l-98 -151h-233zM426 512 q0 -254 147 -254q148 0 148 254t-148 254q-147 0 -147 -254z" />
<glyph unicode="&#xf5;" horiz-adv-x="1146" d="M66 512q0 124 42.5 227t113 169.5t161.5 103.5t190 37t190 -37t162 -103.5t113.5 -169.5t42.5 -227t-42.5 -227t-113.5 -169.5t-162 -103.5t-190 -37t-190 37t-161.5 103.5t-113 169.5t-42.5 227zM213 1176q18 150 79.5 224.5t149.5 74.5q48 0 97 -21.5t88 -43t61 -21.5 q26 0 42 19t28 67h176q-18 -150 -79.5 -224.5t-149.5 -74.5q-48 0 -97 21.5t-88 43t-61 21.5q-26 0 -42 -19t-28 -67h-176zM426 512q0 -254 147 -254q148 0 148 254t-148 254q-147 0 -147 -254z" />
<glyph unicode="&#xf6;" horiz-adv-x="1146" d="M66 512q0 124 42.5 227t113 169.5t161.5 103.5t190 37t190 -37t162 -103.5t113.5 -169.5t42.5 -227t-42.5 -227t-113.5 -169.5t-162 -103.5t-190 -37t-190 37t-161.5 103.5t-113 169.5t-42.5 227zM201 1315q0 68 44.5 114t114.5 46t115 -46t45 -114t-45 -114t-115 -46 t-114.5 46t-44.5 114zM426 512q0 -254 147 -254q148 0 148 254t-148 254q-147 0 -147 -254zM627 1315q0 68 44.5 114t114.5 46t115 -46t45 -114t-45 -114t-115 -46t-114.5 46t-44.5 114z" />
<glyph unicode="&#xf7;" d="M70 553v246h966v-246h-966zM365 307q0 76 54 126t134 50t134 -50t54 -126t-54 -126t-134 -50t-134 50t-54 126zM365 1044q0 76 54 126.5t134 50.5t134 -50.5t54 -126.5t-54 -126t-134 -50t-134 50t-54 126z" />
<glyph unicode="&#xf8;" horiz-adv-x="1146" d="M66 512q0 124 42.5 227t113 169.5t161.5 103.5t190 37q146 0 267 -74l86 106l127 -98l-92 -115q120 -143 120 -356q0 -124 -42.5 -227t-113.5 -169.5t-162 -103.5t-190 -37q-144 0 -268 76l-84 -104l-127 98l90 113q-118 140 -118 354zM406 532q0 -36 4 -94l252 314 q-36 26 -89 26q-78 0 -122.5 -67t-44.5 -179zM483 274q35 -28 90 -28q79 0 123.5 67t44.5 179q0 52 -6 96z" />
<glyph unicode="&#xf9;" horiz-adv-x="1175" d="M102 393v631h353v-586q0 -95 23.5 -129.5t78.5 -34.5q49 0 81.5 20.5t66.5 70.5v659h352v-1024h-287l-25 135h-8q-66 -79 -141 -119.5t-174 -40.5q-163 0 -241.5 110t-78.5 308zM250 1491h336l180 -315h-254z" />
<glyph unicode="&#xfa;" horiz-adv-x="1175" d="M102 393v631h353v-586q0 -95 23.5 -129.5t78.5 -34.5q49 0 81.5 20.5t66.5 70.5v659h352v-1024h-287l-25 135h-8q-66 -79 -141 -119.5t-174 -40.5q-163 0 -241.5 110t-78.5 308zM406 1176l180 315h336l-263 -315h-253z" />
<glyph unicode="&#xfb;" horiz-adv-x="1175" d="M102 393v631h353v-586q0 -95 23.5 -129.5t78.5 -34.5q49 0 81.5 20.5t66.5 70.5v659h352v-1024h-287l-25 135h-8q-66 -79 -141 -119.5t-174 -40.5q-163 0 -241.5 110t-78.5 308zM250 1176l196 315h279l197 -315h-234l-98 151h-8l-99 -151h-233z" />
<glyph unicode="&#xfc;" horiz-adv-x="1175" d="M102 393v631h353v-586q0 -95 23.5 -129.5t78.5 -34.5q49 0 81.5 20.5t66.5 70.5v659h352v-1024h-287l-25 135h-8q-66 -79 -141 -119.5t-174 -40.5q-163 0 -241.5 110t-78.5 308zM213 1315q0 68 45 114t115 46t114.5 -46t44.5 -114t-44.5 -114t-114.5 -46t-115 46t-45 114 zM639 1315q0 68 45 114t115 46t114.5 -46t44.5 -114t-44.5 -114t-114.5 -46t-115 46t-45 114z" />
<glyph unicode="&#xfd;" horiz-adv-x="1110" d="M25 1024h352l123 -393q13 -42 24.5 -88t26.5 -109.5t22 -93.5h9q37 181 65 291l103 393h335l-344 -1008q-42 -108 -83 -179.5t-96.5 -123.5t-126 -75t-165.5 -23q-80 0 -155 20l61 267q58 -13 66 -13q125 0 159 103l13 45zM385 1176l180 315h336l-262 -315h-254z" />
<glyph unicode="&#xfe;" horiz-adv-x="1187" d="M119 -360v1785h352v-333l-8 -134q101 91 233 91q190 0 304 -142t114 -379q0 -128 -36 -234.5t-96 -175t-136 -106t-158 -37.5q-128 0 -225 91l8 -144v-282h-352zM471 311q54 -49 131 -49q68 0 110 62t42 200q0 124 -36 181t-108 57q-76 0 -139 -74v-377z" />
<glyph unicode="&#xff;" horiz-adv-x="1110" d="M25 1024h352l123 -393q13 -42 24.5 -88t26.5 -109.5t22 -93.5h9q37 181 65 291l103 393h335l-344 -1008q-42 -108 -83 -179.5t-96.5 -123.5t-126 -75t-165.5 -23q-80 0 -155 20l61 267q58 -13 66 -13q125 0 159 103l13 45zM193 1315q0 68 44.5 114t114.5 46t115 -46 t45 -114t-45 -114t-115 -46t-114.5 46t-44.5 114zM618 1315q0 68 45 114t115 46t115 -46t45 -114t-45 -114t-115 -46t-115 46t-45 114z" />
<glyph unicode="&#x152;" horiz-adv-x="1802" d="M90 672q0 172 53.5 301t149.5 206t219.5 114.5t273.5 37.5h885v-295h-483v-209h409v-295h-409v-237h504v-295h-926q-113 0 -212 24.5t-185 77t-147.5 130t-96.5 190t-35 250.5zM451 672q0 -92 18.5 -161t49.5 -112t77.5 -69.5t97 -36.5t113.5 -10h29v766h-29 q-64 0 -114 -8.5t-97 -33.5t-77.5 -66t-49 -109t-18.5 -160z" />
<glyph unicode="&#x153;" horiz-adv-x="1662" d="M66 512q0 124 39 226.5t106.5 170t156.5 104t189 36.5q183 0 315 -152q64 73 145 112.5t167 39.5q135 0 230 -70t139 -181.5t44 -252.5q0 -81 -14 -139h-563q39 -156 217 -156q49 0 95.5 17t109.5 52l119 -225q-81 -57 -182 -88t-191 -31q-84 0 -165.5 39.5t-145.5 112.5 q-67 -76 -145.5 -114t-182.5 -38q-100 0 -187.5 36.5t-153.5 104t-104 170t-38 226.5zM422 512q0 -120 34.5 -187t100.5 -67q67 0 103 67.5t36 186.5t-36 186.5t-103 67.5q-66 0 -100.5 -67t-34.5 -187zM1020 618h278q0 74 -30.5 119t-96.5 45q-129 0 -151 -164z" />
<glyph unicode="&#x178;" horiz-adv-x="1114" d="M-20 1331h376l99 -278q15 -44 31 -93t36.5 -108.5t32.5 -95.5h8q20 60 57 163.5t48 133.5l98 278h369l-402 -872v-459h-352v459zM184 1581q0 68 45 114t115 46t115 -46t45 -114t-45 -114t-115 -46t-115 46t-45 114zM610 1581q0 68 45 114t115 46t115 -46t45 -114 t-45 -114t-115 -46t-115 46t-45 114z" />
<glyph unicode="&#x2c6;" horiz-adv-x="1146" d="M238 1176l196 315h279l196 -315h-233l-98 151h-9l-98 -151h-233z" />
<glyph unicode="&#x2dc;" horiz-adv-x="1146" d="M213 1176q18 150 79.5 224.5t149.5 74.5q48 0 97 -21.5t88 -43t61 -21.5q26 0 42 19t28 67h176q-18 -150 -79.5 -224.5t-149.5 -74.5q-48 0 -97 21.5t-88 43t-61 21.5q-26 0 -42 -19t-28 -67h-176z" />
<glyph unicode="&#x2000;" horiz-adv-x="921" />
<glyph unicode="&#x2001;" horiz-adv-x="1843" />
<glyph unicode="&#x2002;" horiz-adv-x="921" />
<glyph unicode="&#x2003;" horiz-adv-x="1843" />
<glyph unicode="&#x2004;" horiz-adv-x="614" />
<glyph unicode="&#x2005;" horiz-adv-x="460" />
<glyph unicode="&#x2006;" horiz-adv-x="307" />
<glyph unicode="&#x2007;" horiz-adv-x="307" />
<glyph unicode="&#x2008;" horiz-adv-x="230" />
<glyph unicode="&#x2009;" horiz-adv-x="368" />
<glyph unicode="&#x200a;" horiz-adv-x="102" />
<glyph unicode="&#x2010;" horiz-adv-x="696" d="M90 397v246h516v-246h-516z" />
<glyph unicode="&#x2011;" horiz-adv-x="696" d="M90 397v246h516v-246h-516z" />
<glyph unicode="&#x2012;" horiz-adv-x="696" d="M90 397v246h516v-246h-516z" />
<glyph unicode="&#x2013;" horiz-adv-x="983" d="M90 410v221h803v-221h-803z" />
<glyph unicode="&#x2014;" horiz-adv-x="1638" d="M90 410v221h1458v-221h-1458z" />
<glyph unicode="&#x2018;" horiz-adv-x="655" d="M111 922q0 317 319 467l74 -152q-100 -43 -148.5 -106t-48.5 -154q6 2 21 2q75 0 125.5 -46.5t50.5 -121.5q0 -85 -49 -136.5t-127 -51.5q-106 0 -161.5 78t-55.5 221z" />
<glyph unicode="&#x2019;" horiz-adv-x="655" d="M152 811q100 43 148 106t48 154q-6 -2 -20 -2q-75 0 -125.5 46.5t-50.5 121.5q0 85 49 136.5t127 51.5q106 0 161.5 -78t55.5 -221q0 -317 -320 -467z" />
<glyph unicode="&#x201a;" horiz-adv-x="655" d="M152 -213q100 43 148 106t48 154q-6 -2 -20 -2q-75 0 -125.5 46.5t-50.5 121.5q0 85 49 136.5t127 51.5q106 0 161.5 -78t55.5 -221q0 -317 -320 -467z" />
<glyph unicode="&#x201c;" horiz-adv-x="1187" d="M111 922q0 317 319 467l74 -152q-100 -43 -148.5 -106t-48.5 -154q6 2 21 2q75 0 125.5 -46.5t50.5 -121.5q0 -85 -49 -136.5t-127 -51.5q-106 0 -161.5 78t-55.5 221zM643 922q0 317 320 467l73 -152q-100 -43 -148 -106t-48 -154q6 2 20 2q75 0 125.5 -46.5 t50.5 -121.5q0 -85 -49 -136.5t-127 -51.5q-106 0 -161.5 78t-55.5 221z" />
<glyph unicode="&#x201d;" horiz-adv-x="1187" d="M152 811q100 43 148 106t48 154q-6 -2 -20 -2q-75 0 -125.5 46.5t-50.5 121.5q0 85 49 136.5t127 51.5q106 0 161.5 -78t55.5 -221q0 -317 -320 -467zM684 811q100 43 148.5 106t48.5 154q-6 -2 -21 -2q-75 0 -125.5 46.5t-50.5 121.5q0 85 49 136.5t127 51.5 q106 0 161.5 -78t55.5 -221q0 -317 -319 -467z" />
<glyph unicode="&#x201e;" horiz-adv-x="1187" d="M152 -213q100 43 148 106t48 154q-6 -2 -20 -2q-75 0 -125.5 46.5t-50.5 121.5q0 85 49 136.5t127 51.5q106 0 161.5 -78t55.5 -221q0 -317 -320 -467zM684 -213q100 43 148.5 106t48.5 154q-6 -2 -21 -2q-75 0 -125.5 46.5t-50.5 121.5q0 85 49 136.5t127 51.5 q106 0 161.5 -78t55.5 -221q0 -317 -319 -467z" />
<glyph unicode="&#x2022;" horiz-adv-x="737" d="M82 537q0 127 82 213t205 86q122 0 204 -86t82 -213t-82 -213t-204 -86q-123 0 -205 86t-82 213z" />
<glyph unicode="&#x2026;" horiz-adv-x="2027" d="M143 188q0 90 58.5 151.5t146.5 61.5t146.5 -61.5t58.5 -151.5t-58.5 -151.5t-146.5 -61.5t-146.5 61.5t-58.5 151.5zM819 188q0 90 58.5 151.5t146.5 61.5t146.5 -61.5t58.5 -151.5t-58.5 -151.5t-146.5 -61.5t-146.5 61.5t-58.5 151.5zM1495 188q0 90 58.5 151.5 t146.5 61.5t146.5 -61.5t58.5 -151.5t-58.5 -151.5t-146.5 -61.5t-146.5 61.5t-58.5 151.5z" />
<glyph unicode="&#x202f;" horiz-adv-x="368" />
<glyph unicode="&#x2039;" horiz-adv-x="614" d="M102 393v246l275 287l127 -103l-221 -307l221 -307l-127 -103z" />
<glyph unicode="&#x203a;" horiz-adv-x="614" d="M111 209l221 307l-221 307l127 103l274 -287v-246l-274 -287z" />
<glyph unicode="&#x205f;" horiz-adv-x="460" />
<glyph unicode="&#x20ac;" d="M41 426v160l106 8v45q0 25 3 49h-109v160l129 10q52 222 199.5 343.5t355.5 121.5q94 0 184.5 -41t159.5 -119l-192 -188q-85 78 -164 78q-70 0 -119 -49.5t-72 -143.5h404v-172h-426v-37q0 -37 2 -53h342v-172h-318q56 -180 199 -180q96 0 168 98l192 -180 q-157 -189 -380 -189q-200 0 -343.5 116t-191.5 335h-129z" />
<glyph unicode="&#x2122;" horiz-adv-x="1433" d="M8 1180v204h561v-204h-168v-443h-225v443h-168zM651 737v647h258l70 -167l37 -127h8l37 127l69 167h259v-647h-218v164l25 246h-8l-94 -316h-148l-94 316h-8l24 -246v-164h-217z" />
<glyph unicode="&#xe000;" horiz-adv-x="1025" d="M0 0v1025h1025v-1025h-1025z" />
<glyph unicode="&#xfb01;" horiz-adv-x="1363" d="M45 750v262l135 10v14q0 68 13 127.5t43 113t76 91.5t116 60t158 22q113 0 217 -37l-62 -258q-58 21 -102 21q-52 0 -79.5 -29t-27.5 -98v-25h173v-274h-173v-750h-352v750h-135zM872 1327q0 77 55.5 126.5t141.5 49.5t141.5 -49.5t55.5 -126.5t-55.5 -126.5 t-141.5 -49.5t-141.5 49.5t-55.5 126.5zM893 0v1024h352v-1024h-352z" />
<glyph unicode="&#xfb02;" horiz-adv-x="1347" d="M45 750v262l135 10v14q0 68 13 127.5t43 113t76 91.5t116 60t158 22q113 0 217 -37l-62 -258q-58 21 -102 21q-52 0 -79.5 -29t-27.5 -98v-25h173v-274h-173v-750h-352v750h-135zM856 360v1065h352v-1077q0 -48 17.5 -69t40.5 -21q21 0 37 4l40 -258q-67 -29 -172 -29 q-169 0 -242 100.5t-73 284.5z" />
</font>
</defs>
</svg>
